Andhadhun 2018 Hindi 720p PRE DVDRip x264 [MW]

  • Category Movies
  • Type Bollywood
  • Language Hindi
  • Total size 1.5 GB
  • Uploaded By moviezworldz
  • Downloads 25621
  • Last checked 3 weeks ago
  • Date uploaded 1 month ago
  • Seeders 257
  • Leechers 143

Andhadhun

ThrillerMysteryRomance

He sees what he shouldn't. She sees what he couldn't. So the question is, does he see it or not?

Infohash : 4022463DF4C1D66AECA2141E9A1F0234BC2B376E





General
Format : Matroska
Format version : Version 4 / Version 2
File size : 1.46 GiB
Duration : 2 h 0 min
Overall bit rate : 1 729 kb/s

Video
ID : 1
Format : AVC
Format/Info : Advanced Video Codec
Format profile : [email protected]
Format settings : CABAC / 4 Ref Frames
Format settings, CABAC : Yes
Format settings, RefFrames : 4 frames
Codec ID : V_MPEG4/ISO/AVC
Duration : 2 h 0 min
Bit rate : 1 600 kb/s
Width : 1 280 pixels
Height : 540 pixels
Display aspect ratio : 2.40:1
Frame rate mode : Constant
Frame rate : 29.970 (30000/1001) FPS
Color space : YUV
Chroma subsampling : 4:2:0
Bit depth : 8 bits
Scan type : Progressive
Bits/(Pixel*Frame) : 0.077
Stream size : 1.35 GiB (92%)
Writing library : x264 core 155 r2901 7d0ff22
Default : Yes
Forced : No

Audio
ID : 2
Format : AAC
Format/Info : Advanced Audio Codec
Format profile : LC
Codec ID : A_AAC-2
Duration : 2 h 0 min
Bit rate : 128 kb/s
Channel(s) : 2 channels
Channel positions : Front: L R
Sampling rate : 48.0 kHz
Frame rate : 46.875 FPS (1024 SPF)
Compression mode : Lossy
Stream size : 111 MiB (7%)
Language : Hindi
Default : Yes
Forced : No


Click To Enlarge Image








Files:

Andhadhun 2018 Hindi 720p PRE DVDRip x264 [MW]
  • Andhadhun 2018 Hindi 720p PRE DVDRip x264 [MW].mkv (1.5 GB)

There are currently no comments. Feel free to leave one :)

Code:

  • udp://tracker.coppersurfer.tk:6969/announce
  • udp://tracker.pirateparty.gr:6969/announce
  • udp://tracker.coppersurfer.tk:6969/announce
  • udp://tracker.tiny-vps.com:6969/announce
  • udp://9.rarbg.me:2740/announce
  • udp://9.rarbg.to:2790/announce
  • udp://public.popcorn-tracker.org:6969/announce
  • udp://tracker.vanitycore.co:6969/announce
  • udp://tracker.opentrackr.org:1337/announce
  • udp://open.stealth.si:80/announce