Blockers 2018 720p BluRay x264 Dual ORG Hindi PGS English Subtitl...

  • Category Movies
  • Type Dubs/Dual Audio
  • Language Hindi
  • Total size 895.0 MB
  • Uploaded By abuhamza420
  • Downloads 1681
  • Last checked 56 minutes ago
  • Date uploaded 22 hours ago
  • Seeders 2
  • Leechers 138

Blockers

Comedy

When three parents discover their daughters’ pact to lose their virginity at prom, they launch a covert one-night operation to stop the teens from sealing the deal.

Infohash : E8F9294AC0E6822B0C4359793100E55EFFB7A3BA







Blockers 2018 720p BluRay x264 Dual ORG Hindi PGS English Subtitle English Audio - MoviesMB


MoviesMB.Com


Downloadhub.Icu


Buy PowerFull VPS And RDP From RDPArena.com

Use Coupon EXTRADESI get 30% Discount on All RDP and VPS Plans






Sample


Video
ID : 1
Format : AVC
Format/Info : Advanced Video Codec
Format profile : [email protected]
Format settings : CABAC / 4 Ref Frames
Format settings, CABAC : Yes
Format settings, RefFrames : 4 frames
Codec ID : V_MPEG4/ISO/AVC
Duration : 1 h 41 min
Bit rate : 1 050 kb/s
Width : 1 280 pixels
Height : 534 pixels
Display aspect ratio : 2.40:1
Original display aspect ratio : 2.40:1
Frame rate mode : Constant
Frame rate : 23.976 (24000/1001) FPS
Color space : YUV
Chroma subsampling : 4:2:0
Bit depth : 8 bits
Scan type : Progressive
Bits/(Pixel*Frame) : 0.064
Stream size : 765 MiB (86%)
Title : MoviesMB.com
Language : English
Default : Yes
Forced : No

Audio
ID : 2
Format : AAC
Format/Info : Advanced Audio Codec
Format profile : LC
Codec ID : A_AAC-2
Duration : 1 h 41 min
Bit rate : 129 kb/s
Channel(s) : 2 channels
Channel positions : Front: L R
Sampling rate : 48.0 kHz
Frame rate : 46.875 FPS (1024 SPF)
Compression mode : Lossy
Delay relative to video : -43 ms
Stream size : 94.1 MiB (11%)
Language : English
Default : Yes
Forced : No

Text #1
ID : 3
Format : PGS
Muxing mode : zlib
Codec ID : S_HDMV/PGS
Codec ID/Info : Picture based subtitle format used on BDs/HD-DVDs
Duration : 1 h 41 min
Bit rate : 43.1 kb/s
Count of elements : 4092
Stream size : 31.1 MiB (4%)
Language : Hindi
Default : Yes
Forced : No

Text #2
ID : 4
Format : PGS
Muxing mode : zlib
Codec ID : S_HDMV/PGS
Codec ID/Info : Picture based subtitle format used on BDs/HD-DVDs
Duration : 1 h 34 min
Bit rate : 68.3 kb/s
Count of elements : 4467
Stream size : 46.1 MiB (5%)
Language : English
Default : No
Forced : No




Blockers 2018 720p BluRay x264 Dual ORG Hindi PGS English Subtitle English Audio - MoviesMB












Files:

Blockers 2018 720p BluRay x264 Dual ORG Hindi PGS English Subtitle English Audio - MoviesMB
  • Blockers 2018 720p BluRay x264 Dual ORG Hindi PGS English Subtitle English Audio - MoviesMB.mkv (886.0 MB)
  • Sample - Blockers 2018 720p BluRay x264 Dual ORG Hindi PGS English Subtitle English Audio - MoviesMB (1).mkv (9.0 MB)
  • Buy RDP - RDPArena.com.url (0.1 KB)
  • Downloadhub.icu Free 300MB Movies Download.url (0.1 KB)
  • Download Latest Movies From MoviesMb.Com.url (0.1 KB)

There are currently no comments. Feel free to leave one :)

Code:

  • UDP://TRACKER.LEECHERS-PARADISE.ORG:6969/ANNOUNCE
  • UDP://TRACKER.COPPERSURFER.TK:6969/ANNOUNCE
  • UDP://TRACKER.OPENTRACKR.ORG:1337/ANNOUNCE
  • udp://9.rarbg.to:2710/announce
  • UDP://EDDIE4.NL:6969/ANNOUNCE
  • udp://inferno.demonoid.pw:3391/announce